DescargasMega.com - Peliculas 2015 Online Gratis! | The Halcyon | DownloadFree Rein HDTV | Pavel Bezdek | Индийские сериалы
fitnessforalls.com - The Largest Bittorent System Login   |    Register
Latest Articles
Most searched
Hot torrents
Movie Torrents
View Torrent Info: Deadpool 2 (2018) [720p] [YTS] [YIFY]
View Torrent Info: Deadpool 2 (2018) [720p] [YTS] [YIFY]
View Torrent Info: The Son of Bigfoot (2017) [720p] [YTS] [YIFY]
View Torrent Info: Show Dogs (2018) [720p] [YTS] [YIFY]
View Torrent Info: Bad Samaritan (2018) [720p] [YTS] [YIFY]
View Torrent Info: God's Not Dead: A Light in Darkness (2018) [720p] [YTS] [YIFY]
View Torrent Info: Strange Magic (2015) [720p] [YTS] [YIFY]
View Torrent Info: Andover (2018) [720p] [YTS] [YIFY]
View Torrent Info: Radius (2017) [720p] [YTS] [YIFY]
View Torrent Info: Gerald's Game (2017) [720p] [YTS] [YIFY]
Hot torrents
TV Torrents
View Torrent Info: Suits.S08E04.HDTV.x264-KILLERS[eztv]
View Torrent Info: Elementary.S06E14.HDTV.x264-KILLERS[eztv]
View Torrent Info: The.100.S05E13.WEB.x264-TBS[eztv]
View Torrent Info: Better.Call.Saul.S04E01.HDTV.x264-SVA[eztv]
View Torrent Info: Salvation.S02E07.HDTV.x264-SVA[eztv]
View Torrent Info: Reverie.S01E10.HDTV.x264-KILLERS[eztv]
View Torrent Info: The.Outpost.S01E05.HDTV.x264-KILLERS[eztv]
View Torrent Info: Animal.Kingdom.US.S03E11.WEBRip.x264-TBS[eztv]
View Torrent Info: Sharp.Objects.S01E05.WEB.H264-DEFLATE[eztv]
View Torrent Info: Castle.Rock.S01E05.WEBRip.x264-TBS[eztv]
fitnessforalls.com > Categories > Movies torrents > HD torrents


Browse Movies torrents

The Secret Of Marrowbone 2018 Movies 720p BluRay x264 5.1 ESubs with Sample ☻rDX☻ torrent



Download torrent: Download The Secret Of Marrowbone 2018 Movies 720p BluRay x264 5.1 ESubs with Sample ☻rDX☻ torrent Magnet link Bookmark Torrent: The Secret Of Marrowbone 2018 Movies 720p BluRay x264 5.1 ESubs with Sample ☻rDX☻ The Secret Of Marrowbone 2018 Movies 720p BluRay x264 5.1 ESubs with Sample ☻rDX☻ torrent | if not working, try instead: Magnet Link
Info hash: 2DA666BE31865C94DEFD4F06CAD4266FCE80B535
Category: Categories > Movies torrents > HD torrents
Trackers:
14    View all torrent trackers >
Health:
 seeds: 4 ,  leechers: 0 |  Update >
Torrent language:  
Total Size: 1.30 GB
Torrent status: Added by trusted uploader Added by trusted uploader Trusted Uploader Site Friend Superman Sun
Uploader: Trusted Uploader Site Friend Superman Sun
Torrent added: 2018-08-11 07:35:16
 

Download The Secret Of Marrowbone 2018 Movies 720p BluRay x264 5.1 ESubs with Sample ☻rDX☻ torrent if not working, try downloading torrent using Download The Secret Of Marrowbone 2018 Movies 720p BluRay x264 5.1 ESubs with Sample ☻rDX☻ via Magnet Link




Torrent Description

The Secret Of Marrowbone 2018 Movies 720p BluRay x264 5.1 ESubs with Sample ☻rDX☻
===============================================================================================

SCREEN SHOTS:



or

http://iphonehosting.eu/2018/8/gadget/1.html

File size : 1.33 GiB
Duration : 1 h 50 min
Overall bit rate : 1 725 kb/s
Movie name : The Secret Of Marrowbone 2018 Movies 720p BluRay x264 5.1 ESubs ☻rDX☻

Video
ID : 1
Format : AVC
Format/Info : Advanced Video Codec
Format profile : [email protected]
Format settings, CABAC : Yes
Format settings, ReFrames : 4 frames
Codec ID : V_MPEG4/ISO/AVC
Duration : 1 h 50 min
Bit rate : 1 500 kb/s
Width : 1 280 pixels
Height : 536 pixels
Display aspect ratio : 2.40:1
Frame rate mode : Constant
Frame rate : 23.976 (24000/1001) FPS
Color space : YUV
Chroma subsampling : 4:2:0
Bit depth : 8 bits
Scan type : Progressive
Bits/(Pixel*Frame) : 0.091
Stream size : 1.13 GiB (85%)
Title : ☻rDX☻
Writing library : x264

Audio
ID : 2
Format : AC-3
Format/Info : Audio Coding 3
Mode extension : CM (complete main)
Format settings, Endianness : Big
Codec ID : A_AC3
Duration : 1 h 50 min
Bit rate mode : Constant
Bit rate : 224 kb/s
Channel(s) : 6 channels
Channel positions : Front: L C R, Side: L R, LFE
Sampling rate : 48.0 kHz
Frame rate : 31.250 FPS (1536 spf)
Bit depth : 16 bits
Compression mode : Lossy
Stream size : 177 MiB (13%)
Title : ☻rDX☻
Language : English
Default : Yes
Forced : No

Text
ID : 3
Format : ASS
Codec ID : S_TEXT/ASS
Codec ID/Info : Advanced Sub Station Alpha
Compression mode : Lossless
Title : ☻rDX☻
Language : English
Default : Yes
Forced : No



IMDB : http://www.imdb.com/title/tt5886440



#nehalpuja -> To avoid fakes, ALWAYS check that the torrent was added on fitnessforalls.com by nehalpuja

http://fitnessforalls.com/



Download The Secret Of Marrowbone 2018 Movies 720p BluRay x264 5.1 ESubs with Sample ☻rDX☻ torrent


Comments (please add your comment)
No comments



Home - Browse Torrents - Upload Torrent - Stat - Forum - FAQ - Login
fitnessforalls.com is in compliance with copyrights
2006-2018 fitnessforalls.com