The Toy Box | Hong Kong | Mickey Mouse ClubhouseCommunity Forum Software by IP.Board 3.4.8 | HD Fight Club (1999) | Red Neon Apple Dark Theme
fitnessforalls.com - The Largest Bittorent System Login   |    Register
Latest Articles
Most searched
Hot torrents
Movie Torrents
View Torrent Info: Deadpool 2 (2018) [720p] [YTS] [YIFY]
View Torrent Info: Tag (2018) [720p] [YTS] [YIFY]
View Torrent Info: Deadpool 2 (2018) [720p] [YTS] [YIFY]
View Torrent Info: Upgrade (2018) [720p] [YTS] [YIFY]
View Torrent Info: Patient Zero (2018) [720p] [YTS] [YIFY]
View Torrent Info: The Son of Bigfoot (2017) [720p] [YTS] [YIFY]
View Torrent Info: Book Club (2018) [720p] [YTS] [YIFY]
View Torrent Info: Show Dogs (2018) [720p] [YTS] [YIFY]
View Torrent Info: Action Point (2018) [720p] [YTS] [YIFY]
View Torrent Info: Deadpool 2 (2018) [720p] [YTS] [YIFY]
Hot torrents
TV Torrents
View Torrent Info: Suits.S08E04.HDTV.x264-KILLERS[eztv]
View Torrent Info: Better.Call.Saul.S04E02.HDTV.x264-SVA[eztv]
View Torrent Info: The.100.S05E13.WEB.x264-TBS[eztv]
View Torrent Info: Power.2014.S05E07.HDTV.x264[eztv]
View Torrent Info: Elementary.S06E15.HDTV.x264-AVSHiT[eztv]
View Torrent Info: Preacher.S03E08.HDTV.x264-SVA[eztv]
View Torrent Info: Elementary.S06E16.HDTV.x264-KILLERS[eztv]
View Torrent Info: Fear.the.Walking.Dead.S04E09.HDTV.x264-SVA[eztv]
View Torrent Info: Ballers.2015.S04E01.HDTV.x264-aAF[eztv]
View Torrent Info: Salvation.S02E08.HDTV.x264-KILLERS[eztv]
fitnessforalls.com > Categories > Movies torrents > HD torrents


Browse Movies torrents

18+ Tell Me Your Name A.K.A. Along Came The Devil 2018 Movies 720p HDRip x264 5.1 ESubs with Sample ☻rDX☻ torrent



Download torrent: Download 18+ Tell Me Your Name A.K.A. Along Came The Devil 2018 Movies 720p HDRip x264 5.1 ESubs with Sample ☻rDX☻ torrent Magnet link Bookmark Torrent: 18+ Tell Me Your Name A.K.A. Along Came The Devil 2018 Movies 720p HDRip x264 5.1 ESubs with Sample ☻rDX☻ 18+ Tell Me Your Name A.K.A. Along Came The Devil 2018 Movies 720p HDRip x264 5.1 ESubs with Sample ☻rDX☻ torrent | if not working, try instead: Magnet Link
Info hash: 2F2EF63847529870DF3652B1B09BBE8F32772DE8
Category: Categories > Movies torrents > HD torrents
Trackers:
14    View all torrent trackers >
Health:
 seeds: 0 ,  leechers: 0 |  Update >
Torrent language:  
Total Size: 994.80 MB
Torrent status: Added by trusted uploader Added by trusted uploader Trusted Uploader Site Friend Superman Sun
Uploader: Trusted Uploader Site Friend Superman Sun
Torrent added: 2018-08-10 20:10:33
 

Download 18+ Tell Me Your Name A.K.A. Along Came The Devil 2018 Movies 720p HDRip x264 5.1 ESubs with Sample ☻rDX☻ torrent if not working, try downloading torrent using Download 18+ Tell Me Your Name A.K.A. Along Came The Devil 2018 Movies 720p HDRip x264 5.1 ESubs with Sample ☻rDX☻ via Magnet Link




Torrent Description

18+ Tell Me Your Name A.K.A. Along Came The Devil 2018 Movies 720p HDRip x264 5.1 ESubs with Sample ☻rDX☻
===============================================================================================

SCREEN SHOTS:



or

http://iphonehosting.eu/2018/8/hardware/1.html

File size : 984 MiB
Duration : 1 h 28 min
Overall bit rate : 1 558 kb/s
Movie name : 18+ Tell Me Your Name 2018 Movies 720p HDRip x264 5.1 ESubs ☻rDX☻

Video
ID : 2
Format : AVC
Format/Info : Advanced Video Codec
Format profile : [email protected]
Format settings, CABAC : Yes
Format settings, ReFrames : 4 frames
Codec ID : V_MPEG4/ISO/AVC
Duration : 1 h 28 min
Bit rate : 917 kb/s
Width : 1 280 pixels
Height : 480 pixels
Display aspect ratio : 2.667
Frame rate mode : Constant
Frame rate : 23.976 (24000/1001) FPS
Color space : YUV
Chroma subsampling : 4:2:0
Bit depth : 8 bits
Scan type : Progressive
Bits/(Pixel*Frame) : 0.062
Stream size : 560 MiB (57%)
Title : ☻rDX☻
Writing library : x264

Audio
ID : 1
Format : E-AC-3
Format/Info : Enhanced Audio Coding 3
Format settings, Endianness : Big
Codec ID : A_EAC3
Duration : 1 h 28 min
Bit rate mode : Constant
Bit rate : 640 kb/s
Channel(s) : 6 channels
Channel positions : Front: L C R, Side: L R, LFE
Sampling rate : 48.0 kHz
Frame rate : 187.500 FPS (256 spf)
Compression mode : Lossy
Delay relative to video : -21 ms
Stream size : 404 MiB (41%)
Title : ☻rDX☻
Language : English
Default : Yes
Forced : No

Text
ID : 3
Format : UTF-8
Codec ID : S_TEXT/UTF8
Codec ID/Info : UTF-8 Plain Text
Title : ☻rDX☻
Language : English
Default : No
Forced : No



IMDB : http://www.imdb.com/title/tt3619070



#nehalpuja -> To avoid fakes, ALWAYS check that the torrent was added on fitnessforalls.com by nehalpuja

http://fitnessforalls.com/



Download 18+ Tell Me Your Name A.K.A. Along Came The Devil 2018 Movies 720p HDRip x264 5.1 ESubs with Sample ☻rDX☻ torrent


Comments (please add your comment)
No comments



Home - Browse Torrents - Upload Torrent - Stat - Forum - FAQ - Login
fitnessforalls.com is in compliance with copyrights
2006-2018 fitnessforalls.com