Ликвидация | tv episodes | Kevin GreutertCitizen Rose: Season ... | Ira Carpelan | The Bone Collector
fitnessforalls.com - The Largest Bittorent System Login   |    Register
Latest Articles
Most searched
Hot torrents
Movie Torrents
Hot torrents
TV Torrents
View Torrent Info: Marvels.Agents.of.S.H.I.E.L.D.S05E16.HDTV.x264-SVA[eztv]
View Torrent Info: Lethal.Weapon.S02E18.WEB.x264-TBS[eztv]
View Torrent Info: Seal.Team.S01E18.HDTV.x264-LOL[eztv]
View Torrent Info: Black.Lightning.S01E12.HDTV.x264-SVA[eztv]
View Torrent Info: S.W.A.T.2017.S01E16.HDTV.x264-KILLERS[eztv]
View Torrent Info: Scandal.US.S07E16.HDTV.x264-KILLERS[eztv]
View Torrent Info: DCs.Legends.of.Tomorrow.S03E18.HDTV.x264-SVA[eztv]
View Torrent Info: Chicago.Fire.S06E17.HDTV.x264-KILLERS[eztv]
View Torrent Info: Criminal.Minds.S13E20.HDTV.x264-SVA[eztv]
View Torrent Info: Silicon.Valley.S05E03.WEB.H264-DEFLATE[eztv]
fitnessforalls.com > Categories > Movies torrents > Animation torrents


Browse Movies torrents

The.Smurfs.2.2013.2160p.UHD.BluRay.REMUX.HEVC.Atmos.TrueHD.7.1-MZABI torrent



Download torrent: Magnet link Bookmark Torrent: The.Smurfs.2.2013.2160p.UHD.BluRay.REMUX.HEVC.Atmos.TrueHD.7.1-MZABI Download The.Smurfs.2.2013.2160p.UHD.BluRay.REMUX.HEVC.Atmos.TrueHD.7.1-MZABI torrent (magnet link)
Info hash: 2724D0FBC6AD25226643E67B6F6DA0C01D3AE649
Category: Categories > Movies torrents > Animation torrents
Trackers:
11    View all torrent trackers >
Health:
 seeds: 9 ,  leechers: 16 |  Update >
Torrent language:  
Total Size: 49.74 GB
Torrent status: Added by trusted uploader Added by trusted uploader Trusted Uploader Site Friend Superman Sun
Uploader: Trusted Uploader Site Friend Superman Sun
 

Download The.Smurfs.2.2013.2160p.UHD.BluRay.REMUX.HEVC.Atmos.TrueHD.7.1-MZABI via Magnet Link




Torrent Description

Source: The.Smurfs.2.2013.COMPLETE.UHD.BLURAY-THRONE



[spoiler=Mediainfo]General
Unique ID : 234099155042696766189965140311472650232 (0xB01DDB75BC3C1BCC8EE58D112F50B7F8)
Complete name : The.Smurfs.2.2013.2160p.UHD.BluRay.REMUX.HEVC.Atmos.TrueHD.7.1-MZABI.mkv
Format : Matroska
Format version : Version 4 / Version 2
File size : 49.7 GiB
Duration : 1 h 44 min
Overall bit rate mode : Variable
Overall bit rate : 67.9 Mb/s
Encoded date : UTC 2017-05-03 23:20:21
Writing application : mkvmerge v10.0.0 ('To Drown In You') 64bit
Writing library : libebml v1.3.4 + libmatroska v1.4.5

Video
ID : 1
Format : HEVC
Format/Info : High Efficiency Video Coding
Format profile : Main [email protected]@High
Codec ID : V_MPEGH/ISO/HEVC
Duration : 1 h 44 min
Bit rate : 58.4 Mb/s
Width : 3 840 pixels
Height : 2 160 pixels
Display aspect ratio : 16:9
Frame rate mode : Constant
Frame rate : 23.976 (24000/1001) FPS
Color space : YUV
Chroma subsampling : 4:2:0 (Type 2)
Bit depth : 10 bits
Bits/(Pixel*Frame) : 0.294
Stream size : 42.8 GiB (86%)
Title : MPEGH HEVC Video / 58.4 Mbs / 2160p / 23,976 fps / 16:9 / Main 10 Profile [email protected]
Default : Yes
Forced : No
Color range : Limited
Color primaries : BT.2020
Transfer characteristics : SMPTE ST 2084
Matrix coefficients : BT.2020 non-constant
Mastering display color pri : R: x=0.680000 y=0.320000, G: x=0.265000 y=0.690000, B: x=0.150000 y=0.060000, White point: x=0.312700 y=0.329000
Mastering display luminance : min: 0.0050 cd/m2, max: 4000.0000 cd/m2
Maximum Content Light Level : 1132 cd/m2
Maximum Frame-Average Light : 923 cd/m2

Audio #1
ID : 2
Format : TrueHD
Format profile : TrueHD+Atmos / TrueHD
Codec ID : A_TRUEHD
Duration : 1 h 44 min
Bit rate mode : Variable
Bit rate : 4 893 kb/s
Maximum bit rate : 8 124 kb/s
Channel(s) : Object Based / 8 channels
Channel positions : Object Based / Front: L C R, Side: L R, Back: L R, LFE
Sampling rate : / 48.0 kHz
Frame rate : 1 200.000 FPS (40 spf)
Compression mode : Lossless
Stream size : 3.59 GiB (7%)
Title : Dolby Atmos Audio / 7.1 / 48 kHz / 4893 kb/s / 24-bit
Language : English
Default : Yes
Forced : No

Audio #2
ID : 3
Format : AC-3
Format/Info : Audio Coding 3
Format settings, Endianness : Big
Codec ID : A_AC3
Duration : 1 h 44 min
Bit rate mode : Constant
Bit rate : 640 kb/s
Channel(s) : 6 channels
Channel positions : Front: L C R, Side: L R, LFE
Sampling rate : 48.0 kHz
Frame rate : 31.250 FPS (1536 spf)
Bit depth : 16 bits
Compression mode : Lossy
Stream size : 480 MiB (1%)
Title : Compatibility Track / Dolby Digital Audio / 5.1 / 48 kHz / 640 kbps
Language : English
Service kind : Complete Main
Default : No
Forced : No

Audio #3
ID : 4
Format : AC-3
Format/Info : Audio Coding 3
Format settings, Endianness : Big
Codec ID : A_AC3
Duration : 1 h 44 min
Bit rate mode : Constant
Bit rate : 640 kb/s
Channel(s) : 6 channels
Channel positions : Front: L C R, Side: L R, LFE
Sampling rate : 48.0 kHz
Frame rate : 31.250 FPS (1536 spf)
Bit depth : 16 bits
Compression mode : Lossy
Delay relative to video : -8 ms
Stream size : 480 MiB (1%)
Title : Commentary / Dolby Digital Audio / 5.1 / 48 kHz / 640 kbps
Language : English
Service kind : Complete Main
Default : No
Forced : No

Audio #4
ID : 5
Format : DTS
Format/Info : Digital Theater Systems
Format profile : MA / Core
Mode : 16
Format settings, Endianness : Big
Codec ID : A_DTS
Duration : 1 h 44 min
Bit rate mode : Variable / Constant
Bit rate : 2 308 kb/s / 1 509 kb/s
Channel(s) : 6 channels
Channel positions : Front: L C R, Side: L R, LFE
Sampling rate : 48.0 kHz
Frame rate : 93.750 FPS (512 spf)
Bit depth : 16 bits
Compression mode : Lossless / Lossy
Stream size : 1.69 GiB (3%)
Title : DTS Audio / 5.1 / 48 kHz / 1509 kbps / 24-bit
Language : French
Default : No
Forced : No

Audio #5
ID : 6
Format : AC-3
Format/Info : Audio Coding 3
Mode : Dolby Digital
Format settings, Endianness : Big
Codec ID : A_AC3
Duration : 1 h 44 min
Bit rate mode : Constant
Bit rate : 192 kb/s
Channel(s) : 2 channels
Channel positions : Front: L R
Sampling rate : 48.0 kHz
Frame rate : 31.250 FPS (1536 spf)
Bit depth : 16 bits
Compression mode : Lossy
Delay relative to video : -8 ms
Stream size : 144 MiB (0%)
Title : Commentary / Dolby Digital Audio / 2.0 / 48 kHz / 192 kbps
Language : French
Service kind : Complete Main
Default : No
Forced : No

Audio #6
ID : 7
Format : AC-3
Format/Info : Audio Coding 3
Format settings, Endianness : Big
Codec ID : A_AC3
Duration : 1 h 44 min
Bit rate mode : Constant
Bit rate : 640 kb/s
Channel(s) : 6 channels
Channel positions : Front: L C R, Side: L R, LFE
Sampling rate : 48.0 kHz
Frame rate : 31.250 FPS (1536 spf)
Bit depth : 16 bits
Compression mode : Lossy
Delay relative to video : -8 ms
Stream size : 480 MiB (1%)
Title : Dolby Digital Audio / 5.1 / 48 kHz / 640 kbps
Language : Spanish
Service kind : Complete Main
Default : No
Forced : No

Text #1
ID : 8
Format : PGS
Muxing mode : zlib
Codec ID : S_HDMV/PGS
Codec ID/Info : Picture based subtitle format used on BDs/HD-DVDs
Duration : 1 h 44 min
Bit rate : 17.4 kb/s
Count of elements : 4436
Stream size : 13.0 MiB (0%)
Language : English
Default : No
Forced : No

Text #2
ID : 9
Format : PGS
Muxing mode : zlib
Codec ID : S_HDMV/PGS
Codec ID/Info : Picture based subtitle format used on BDs/HD-DVDs
Duration : 1 h 44 min
Bit rate : 13.8 kb/s
Count of elements : 3576
Stream size : 10.3 MiB (0%)
Language : English
Default : No
Forced : No

Text #3
ID : 10
Format : PGS
Muxing mode : zlib
Codec ID : S_HDMV/PGS
Codec ID/Info : Picture based subtitle format used on BDs/HD-DVDs
Duration : 1 h 43 min
Bit rate : 11.1 kb/s
Count of elements : 3378
Stream size : 8.28 MiB (0%)
Language : French
Default : No
Forced : No

Text #4
ID : 11
Format : PGS
Muxing mode : zlib
Codec ID : S_HDMV/PGS
Codec ID/Info : Picture based subtitle format used on BDs/HD-DVDs
Duration : 1 h 34 min
Bit rate : 33 b/s
Count of elements : 10
Stream size : 23.0 KiB (0%)
Language : French
Default : No
Forced : No

Text #5
ID : 12
Format : PGS
Muxing mode : zlib
Codec ID : S_HDMV/PGS
Codec ID/Info : Picture based subtitle format used on BDs/HD-DVDs
Duration : 1 h 44 min
Bit rate : 13.0 kb/s
Count of elements : 3528
Stream size : 9.68 MiB (0%)
Language : Spanish
Default : No
Forced : No[/spoiler]









#Labine6 -> To avoid fakes, ALWAYS check that the torrent was added on fitnessforalls.com by Labine6

http://fitnessforalls.com/




Comments (please add your comment)
No comments



Home - Browse Torrents - Upload Torrent - Stat - Forum - FAQ - Login
fitnessforalls.com is in compliance with copyrights
2006-2018 fitnessforalls.com