Shrek 2: The Potion Plan | Слушать аудиокнигу | DescarcaSuper Rakshak (Rathaavara) 2018 Hindi Dubbed 720p HQ HDTV x264 AAC 700MB[ | El Farsante | Nightcore My Lover Not3s Mabel.mp3
fitnessforalls.com - The Largest Bittorent System Login   |    Register
Latest Articles
Most searched
Hot torrents
Movie Torrents
Hot torrents
TV Torrents
View Torrent Info: Marvels.Agents.of.S.H.I.E.L.D.S05E16.HDTV.x264-SVA[eztv]
View Torrent Info: Lethal.Weapon.S02E18.WEB.x264-TBS[eztv]
View Torrent Info: Seal.Team.S01E18.HDTV.x264-LOL[eztv]
View Torrent Info: Black.Lightning.S01E12.HDTV.x264-SVA[eztv]
View Torrent Info: DCs.Legends.of.Tomorrow.S03E18.HDTV.x264-SVA[eztv]
View Torrent Info: Criminal.Minds.S13E20.HDTV.x264-SVA[eztv]
View Torrent Info: Silicon.Valley.S05E03.WEB.H264-DEFLATE[eztv]
View Torrent Info: Homeland.S07E09.WEB.H264-DEFLATE[eztv]
View Torrent Info: The.Expanse.S03E01.HDTV.x264-SVA[eztv]
View Torrent Info: New.Girl.S07E01.HDTV.x264-KILLERS[eztv]
fitnessforalls.com > Categories > Movies torrents > Animation torrents


Browse Movies torrents

Pinocchio.1940.720p.REAL.PROPER.BluRay.x264-FLAME[PRiME] torrent



Download torrent: Magnet link Bookmark Torrent: Pinocchio.1940.720p.REAL.PROPER.BluRay.x264-FLAME[PRiME] Download Pinocchio.1940.720p.REAL.PROPER.BluRay.x264-FLAME[PRiME] torrent (magnet link)
Info hash: 283727950FB605437EFDF68B2BC7D48112C1D93B
Category: Categories > Movies torrents > Animation torrents
Trackers:
18    View all torrent trackers >
Health:
 seeds: 4 ,  leechers: 4 |  Update >
Torrent language:  
Total Size: 3.31 GB
Torrent status: Added by trusted uploader Added by trusted uploader Trusted Uploader Site Friend Superman Sun
Uploader: Trusted Uploader Site Friend Superman Sun
 

Download Pinocchio.1940.720p.REAL.PROPER.BluRay.x264-FLAME[PRiME] via Magnet Link




Torrent Description


Pinocchio.1940.720p.REAL.PROPER.BluRay.x264-FLAME[PRiME]

ImDb: http://www.imdb.com/title/tt0032910



Complete name : flame-pinocchio.1940.720p.real.proper.bluray.x264[PRiME].mkv
Format : Matroska
Format version : Version 4 / Version 2
File size : 3.28 GiB
Duration : 1 h 27 min
Overall bit rate : 5 352 kb/s
Encoded date : UTC 2017-04-30 07:29:37
Writing application : mkvmerge v11.0.0 ('Alive') 64bit
Writing library : libebml v1.3.4 + libmatroska v1.4.5

Video
ID : 1
Format : AVC
Format/Info : Advanced Video Codec
Format profile : [email protected]
Format settings, CABAC : Yes
Format settings, ReFrames : 8 frames
Codec ID : V_MPEG4/ISO/AVC
Duration : 1 h 27 min
Bit rate : 3 840 kb/s
Width : 976 pixels
Height : 720 pixels
Display aspect ratio : 4:3
Frame rate mode : Constant
Frame rate : 23.976 (24000/1001) FPS
Color space : YUV
Chroma subsampling : 4:2:0
Bit depth : 8 bits
Scan type : Progressive
Bits/(Pixel*Frame) : 0.228
Stream size : 2.35 GiB (72%)
Writing library : x264 core 148 r2762 90a61ec
Encoding settings : cabac=1 / ref=8 / deblock=1:2:1 / analyse=0x3:0x133 / me=umh / subme=9 / psy=1 / psy_rd=0.50:0.00 / mixed_ref=1 / me_range=16 / chroma_me=1 / trellis=2 / 8x8dct=1 / cqm=0 / deadzone=21,11 / fast_pskip=0 / chroma_qp_offset=-2 / threads=12 / lookahead_threads=1 / sliced_threads=0 / nr=0 / decimate=1 / interlaced=0 / bluray_compat=0 / constrained_intra=0 / bframes=3 / b_pyramid=2 / b_adapt=2 / b_bias=0 / direct=3 / weightb=1 / open_gop=0 / weightp=2 / keyint=250 / keyint_min=23 / scenecut=40 / intra_refresh=0 / rc_lookahead=60 / rc=2pass / mbtree=1 / bitrate=3840 / ratetol=1.0 / qcomp=0.60 / qpmin=10 / qpmax=69 / qpstep=4 / cplxblur=20.0 / qblur=0.5 / ip_ratio=1.40 / aq=1:0.70
Language : English
Default : Yes
Forced : No

Audio
ID : 2
Format : DTS
Format/Info : Digital Theater Systems
Mode : 16
Format settings, Endianness : Big
Codec ID : A_DTS
Duration : 1 h 27 min
Bit rate mode : Constant
Bit rate : 1 509 kb/s
Channel(s) : 6 channels
Channel positions : Front: L C R, Side: L R, LFE
Sampling rate : 48.0 kHz
Frame rate : 93.750 FPS (512 spf)
Bit depth : 24 bits
Compression mode : Lossy
Stream size : 947 MiB (28%)
Title : English DTS 1509 kbps
Language : English
Default : Yes
Forced : No

Text #1
ID : 3
Format : UTF-8
Codec ID : S_TEXT/UTF8
Codec ID/Info : UTF-8 Plain Text
Duration : 1 h 27 min
Bit rate : 46 b/s
Count of elements : 1005
Stream size : 29.9 KiB (0%)
Language : English
Default : No
Forced : No

Text #2
ID : 4
Format : UTF-8
Codec ID : S_TEXT/UTF8
Codec ID/Info : UTF-8 Plain Text
Duration : 38 min 58 s
Bit rate : 9 b/s
Count of elements : 87
Stream size : 2.59 KiB (0%)
Title : Songs
Language : English
Default : No
Forced : No

Menu
00:00:00.000 : :
00:02:21.515 : :
00:06:16.584 : :
00:11:33.484 : :
00:15:17.081 : :
00:18:43.704 : :
00:21:33.750 : :
00:26:58.365 : :
00:28:48.101 : :
00:30:45.468 : :
00:36:32.440 : :
00:40:56.327 : :
00:47:43.275 : :
00:50:32.653 : :
00:53:06.807 : :
00:57:06.255 : :
00:58:47.898 : :
01:04:06.884 : :
01:06:31.987 : :
01:09:08.894 : :
01:14:52.237 : :
01:17:01.283 : :
01:20:08.470 : :
01:24:29.646 : :
01:27:43.256 : :




Click Image To View Full Size


Click To View Screenshot
Click To View Screenshot
Click To View Screenshot



#Simmoncelli -> To avoid fakes, ALWAYS check that the torrent was added on fitnessforalls.com by Simmoncelli

http://fitnessforalls.com/




Comments (please add your comment)
No comments



Home - Browse Torrents - Upload Torrent - Stat - Forum - FAQ - Login
fitnessforalls.com is in compliance with copyrights
2006-2018 fitnessforalls.com