(21 links) | The Glades | Macarena Garcia De La CamachaLego Dc Super ... | Harry Potter | Tan Pan Yuan Jia
fitnessforalls.com - The Largest Bittorent System Login   |    Register
Latest Articles
Most searched
Hot torrents
Movie Torrents
Hot torrents
TV Torrents
View Torrent Info: Marvels.Agents.of.S.H.I.E.L.D.S05E16.HDTV.x264-SVA[eztv]
View Torrent Info: Lethal.Weapon.S02E18.WEB.x264-TBS[eztv]
View Torrent Info: Seal.Team.S01E18.HDTV.x264-LOL[eztv]
View Torrent Info: Black.Lightning.S01E12.HDTV.x264-SVA[eztv]
View Torrent Info: S.W.A.T.2017.S01E16.HDTV.x264-KILLERS[eztv]
View Torrent Info: Scandal.US.S07E16.HDTV.x264-KILLERS[eztv]
View Torrent Info: DCs.Legends.of.Tomorrow.S03E18.HDTV.x264-SVA[eztv]
View Torrent Info: Chicago.Fire.S06E17.HDTV.x264-KILLERS[eztv]
View Torrent Info: Criminal.Minds.S13E20.HDTV.x264-SVA[eztv]
View Torrent Info: Silicon.Valley.S05E03.WEB.H264-DEFLATE[eztv]
fitnessforalls.com > Categories > Movies torrents > Animation torrents


Browse Movies torrents

Bath.Day.1946.BDRip.x264-FLAME[PRiME] torrent



Download torrent: Magnet link Bookmark Torrent: Bath.Day.1946.BDRip.x264-FLAME[PRiME] Download Bath.Day.1946.BDRip.x264-FLAME[PRiME] torrent (magnet link)
Info hash: 819E6179C504977B2BB6EAC97ECC749D23588C8E
Category: Categories > Movies torrents > Animation torrents
Trackers:
18    View all torrent trackers >
Health:
 seeds: 0 ,  leechers: 4 |  Update >
Torrent language:  
Total Size: 75.12 MB
Torrent status: Added by trusted uploader Added by trusted uploader Trusted Uploader Site Friend Superman Sun
Uploader: Trusted Uploader Site Friend Superman Sun
 

Download Bath.Day.1946.BDRip.x264-FLAME[PRiME] via Magnet Link




Torrent Description


Bath.Day.1946.BDRip.x264-FLAME[PRiME]

ImDb: http://www.imdb.com/title/tt0038336



Complete name : flame-bath.day.1946.bdrip.x264[PRiME].mkv
Format : Matroska
Format version : Version 4 / Version 2
File size : 75.1 MiB
Duration : 6 min 40 s
Overall bit rate : 1 575 kb/s
Encoded date : UTC 2017-04-29 11:14:37
Writing application : mkvmerge v10.0.0 ('To Drown In You') 64bit
Writing library : libebml v1.3.4 + libmatroska v1.4.5

Video
ID : 1
Format : AVC
Format/Info : Advanced Video Codec
Format profile : [email protected]
Format settings, CABAC : Yes
Format settings, ReFrames : 8 frames
Codec ID : V_MPEG4/ISO/AVC
Duration : 6 min 40 s
Bit rate : 1 451 kb/s
Width : 640 pixels
Height : 468 pixels
Display aspect ratio : 4:3
Frame rate mode : Constant
Frame rate : 23.976 (24000/1001) FPS
Color space : YUV
Chroma subsampling : 4:2:0
Bit depth : 8 bits
Scan type : Progressive
Bits/(Pixel*Frame) : 0.202
Stream size : 69.2 MiB (92%)
Writing library : x264 core 148 r2762 90a61ec
Encoding settings : cabac=1 / ref=8 / deblock=1:0:0 / analyse=0x3:0x133 / me=umh / subme=9 / psy=1 / psy_rd=1.00:0.00 / mixed_ref=1 / me_range=16 / chroma_me=1 / trellis=2 / 8x8dct=1 / cqm=0 / deadzone=21,11 / fast_pskip=0 / chroma_qp_offset=-2 / threads=12 / lookahead_threads=1 / sliced_threads=0 / nr=0 / decimate=1 / interlaced=0 / bluray_compat=0 / constrained_intra=0 / bframes=3 / b_pyramid=2 / b_adapt=2 / b_bias=0 / direct=3 / weightb=1 / open_gop=0 / weightp=2 / keyint=250 / keyint_min=23 / scenecut=40 / intra_refresh=0 / rc_lookahead=60 / rc=crf / mbtree=1 / crf=23.0 / qcomp=0.60 / qpmin=0 / qpmax=69 / qpstep=4 / ip_ratio=1.40 / aq=1:1.00
Language : English
Default : Yes
Forced : No
Color range : Limited
Matrix coefficients : BT.601

Audio
ID : 2
Format : AAC
Format/Info : Advanced Audio Codec
Format profile : LC
Codec ID : A_AAC
Duration : 6 min 40 s
Bit rate : 122 kb/s
Channel(s) : 2 channels
Channel positions : Front: L R
Sampling rate : 48.0 kHz
Frame rate : 46.875 FPS (1024 spf)
Compression mode : Lossy
Delay relative to video : 9 ms
Stream size : 5.80 MiB (8%)
Title : English AAC-LC 122 kbps
Language : English
Default : Yes
Forced : No




Click Image To View Full Size


Click To View Screenshot
Click To View Screenshot
Click To View Screenshot



#Simmoncelli -> To avoid fakes, ALWAYS check that the torrent was added on fitnessforalls.com by Simmoncelli

http://fitnessforalls.com/




Comments (please add your comment)
No comments



Home - Browse Torrents - Upload Torrent - Stat - Forum - FAQ - Login
fitnessforalls.com is in compliance with copyrights
2006-2018 fitnessforalls.com